Sh is a private tracker specializing in all things related to food. Buy, Trade, Sell Or Find Free Invites for HDBits, PTP, Empornium, PrivateHD, Sinderella, etc 🎅🎄 ×. Learn more. Back in August 2012 a member of the BakaBT community called Buchno managed to reach an amazing 10TB uploaded. TVV has global freeleech for 17 days. This tracker dont have a large members base, but has very friendly and active comunity and many quality torrents. Bangladesh's Premier forum & online community. Hi, I just joined GG tracker and it seems to be a very organize tracker. StormEye 584 May. With smaller files, more people are likely to start leeching because they complete faster. by Chiyachan. 9MB DJ Technorch - Track 4. It's a great site, all the HD movies, SD/HD tv packs, all freeleech. Avistaz is the great asian tracker with all the asian stuff. This entire site has been designed to cater toward's Gaming, software & entertainment enthusiasts. After that uncheck "Resolve peer countries (GeoIP)" Hope it helps. BeatHau5 – Global Freeleech; Create a free website or blog at WordPress. 10$ 15$ &In some cases negotiable. Privatetrackers. 700MBz movie tracker - 24 hour freeleech on all new torrents In February 2009, we introduced to our readers a new private movie torrent tracker named 700MBz. Pastebin is a website where you can store text online for a set period of time. digital/ Sitewide Freeleech - NEXT 3 DAY. 0MB 06 Body to Body. Best latvian tracker. In their glory days they were comfortably #2 and I think they have a chance to regain their position. Reply Anonymous Oct 21,2016 11:49 pm Just because you dont know how to use it doesnt mean its bad. getting invite isn't hard as you can either buy it from market for 200 points (but you must be elite user class) or by donating tracker has very good content some of them even you can't find on big general trackers but torrents doesn't get many seeders so on some torrents you will have speed problem. Avistaz is the great asian tracker with all the asian stuff. Tracker Name: 29m-team. 🔗 Cadastre-se: https://semeando. Grab A torrent is grabbed when its metadata files have been downloaded. Signing up for an account is. RapidSeedbox gives you an optimized, fast, and totally customizable Seedbox that fits your every need. El tracker privado de Bittorrent, Tibimate, abre sus puertas a nuevos registros sin necesidad de pedir ninguna invitación. Make sure you're using v4. AlphaRatio. 转发可对外公布的公告(去除其中链接)2017-01-05 10:00:13---关于http访问异常通知 我们已经收到多起访问异常反馈,访问时提示"连接被重置",已知影响网站访问以及bt客户端。如您出. 700MBz movie tracker – 24 hour freeleech on all new torrents In February 2009, we introduced to our readers a new private movie torrent tracker named 700MBz. LosslessClub. 12 set freeleech! so dont worry be happy. The add on after installed will monitor your download and detect torrent files. Elite-Tracker News - All torrents are Silver. net Genre: General SD/HD tv packs, all freeleech. Non-mainstream Music mostly. org — Very promising new 0day tracker with some good pre-times. The file is made up of headers in the form of [headername] with the options for that header immediately below. 01 PHOENIX (Japanese ver. Enjoy! Press J to jump to the feed. Le 23 mars 2017 , t411 annonce un changement de nom de domaine, et choisit de le transférer sur l'île d' Anguilla , ce qui donnera t411. Cinemageddon is a great tracker if you are looking for rarer/older movies. Le 16 novembre 2016, le tracker t411 choisit de transférer son nom de domaine de t411. • Freeleech ativo até o terça-feira. In the past week, there’s already 375 torrents, and everything is freeleech. AlphaRatio. Freeleech is something applied to a torrent that makes download stats not be recorded (or at least counted on your download amount) at all, so the torrent is free to leech hence the term freeleech. It's hard to maintain a good ratio on SceneAccess due to the lack of a bonus system and freeleech only available for donors. The add on after installed will monitor your download and detect torrent files. Início Fóruns Área dos Filmes Escolhe o que filme que queres ver em Freeleech. Now let's move our track going toe our hand at the place off. In general, if your tracker requires a 1:1 ratio, smaller files is better. li pour contrer un temps le déréférencement de Google [24]. StellaTerra mentioned this issue on Nov 22, 2020. PornBits (has freeleech) so 0 download and 1tb upload (after 1 month) The problem is you don't A - seed back B - don't go for fresh content to build your upload aka new series episodes the night they are released in 720 and 1080p as well as movies that come out and released that day. Add freeleech filter option to What. cd Freeleech ( What. Back in August 2012 a member of the BakaBT community called Buchno managed to reach an amazing 10TB uploaded. Could we use the term "free" as arg to get only freeleech on last-torrents and search endpoint. TVV: This is an excellent tracker, among one of the best for TV enthusiasts by far. Torrentday seem to be having a bit of a freeleech extravaganza. 33,952 likes · 247 talking about this. 本文整理汇总了PHP中htmlsafechars函数的典型用法代码示例。如果您正苦于以下问题:PHP htmlsafechars函数的具体用法?PHP htmlsafechars怎么用?PHP htmlsafechars使用的例子?那么恭喜您, 这里精选的函数代码示例或许可以为您提供帮助。. Nu mai am nici un tracker care sa mearga. A note on the homepage reads: 1. Currently we have some membership slots reserved for Donors. In the worst case, you may be auto-banned by the tracker. Add bnc option to server header. Most likely you will have to create and share your own torrents. Buy, Trade, Sell Or Find Free Invites for HDBits, PTP, Empornium, PrivateHD, Sinderella, etc 🎅🎄 ×. Oh I forgot to mention, the tracker is on global freeleech at the moment, but the freeleech flag does is not set to 1 in the API results when it happens. Welcome to CrazyHD. Vuforia Live is a half-day virtual event devoted to all things augmented reality, featuring sessions on the business value of AR, spotlights on real-world AR case studies, updates on PTC AR products, and a sneak peek into what the Vuforia team is working on next. DJ Technorch - Track 1. Type: general/scene tracker Lovely Design. wav" WAVE INDEX 01 00:00:00 TRACK 04 AUDIO TITLE "Too Long" INDEX 00 02:10:04 FILE "04 - Too Long. xParasiite Membre Inscription : 23/12/2012 Messages : 637 Réputation : 213. Change authkey to passkey in FunFile. Sitewide Freeleech 2x Upload Credit 10k gift seedbonus (members who joined before or on 31/12/2019) Enjoy 2X facilities on donation (* Donation page *) Offer will last till 10/01/2020, 11:59 PM To add more to this happiness, our long awaited site update is now live with many exciting features & revitalization. You should also try to get an invite from a good friend of yours, other users on asian related forums or similar This is JPopsuki 2. Dear users. Not familiar with this tracker, curious of anyone's opinions. Privacy & Cookies: This site uses cookies. Press question mark to learn the rest of the keyboard shortcuts This is the only tracker. 2 contributors. For the time being, we’re keeping freeleech. Filelist is one of the most popular Romanian tracker of general direction with a really great base of torrents and users. TorrentBD is the leading Private Torrent Tracker in Bangladesh. 1 x265-k7 (The Wolf of Wall Street) Love, Death + Robots S02 VOST WEBRIP1080p H264. Tracker Name : Arabp2p Duration : Freeleech for Ramadan files until 23-05-2020 Edited May 9, 2020 by Storm989. cannot get anything to parse at all from their server. 你对这个回答的评价是?. Thanks for that info. PWNNetwork Open Signups And Freeleech - Games Torrent Tracker Earlier this month we featured a new Gazelle based PC and Games torrent tracker called PwnNetwork (aka The Network). Page 1 of 13 - The new idol tracker is going public - posted in Discussion Lounge: Dear friends and idol lovers, as promised a few weeks back we have been working on a new tracker especially dedicated to Japanese idols. You can find Bitcoin Marketplace and Auction Site. Nu mai am nici un tracker care sa mearga. Torrentday seem to be having a bit of a freeleech extravaganza. The home tracker of the TEPES group, plenty of content. Google Translation: All torrents are Silver from 08. The cookie is used to calculate visitor, session, campaign data and keep track of site usage for the site's analytics report. Inserts a freeleech link in main menu. The home tracker of the TEPES group, plenty of content. net is open. Regular random freeleech! Posted on 04. Add ignores to PTN. PWNNetwork Open Signups And Freeleech - Games Torrent Tracker Earlier this month we featured a new Gazelle based PC and Games torrent tracker called PwnNetwork (aka The Network). 33,952 likes · 247 talking about this. 🎅🎄 Signup today to get free TorrentLeech or ProAudioTorrents Invite! Get access to premium trackers, free seedboxes by signing up. com private torrent trackers selling store from admin Rendition. There is a 5,000 users limit. A user's ratio is a number that is calculated based on the how much the user has uploaded and download. However, if your BT tracker requires a 0. Signing up for an account is. I personally like their theme. Some trorrents are cross seeded in those three trackers. As of today, there are over 43000 active torrents on this tracker – roughly 150-200 new torrents get uploaded every day. ) Gazelle : A web framework geared towards private trackers, developed by What. net — While not new (they’ve been around since August), AM2 is a Spanish tracker with. Jump into any of the discussions in our forum or read the quality articles in our. Max user limit: 55,000. No Yes - Freeleech This counts only Upload data (free-leech) No Yes - Upload Boost This gives peers 5X data upload credit toward seedbonus! No Yes - Download Boost This gives peers 5X data download credit (ratio-building) No Yes - Silver This splits peers download data in half (light-boost). Don't be afraid if you don't know bulgarian - the site has English translation and also a small part of the forum is dedicated to foreign users. I miss my brother. Actually I recently became member of IPT and got a seedbox for a month so after doing that I was made aware of stuff like autodl-irssi as to get a good ratio on IPT, I needed to download torrents (freeleech) as soon as they are posted and for that I setup autodl-irssi but once I have built ratio, I guess I will no longer use seedbox and then keep leeching and zapping and. You can find Bitcoin Marketplace and Auction Site. Feel free to explore and incase you are lost, our nice and helpful staff is right there for you. However, if your BT tracker requires a 0. Le 16 novembre 2016, le tracker t411 choisit de transférer son nom de domaine de t411. This add-on is not affiliated with XenForo Ltd. Table 13 reports estimates of the elasticity of sales with respect to private-network piracy, with a median estimate. JPopsuki 2. Elite-Tracker News - Sitewide Freeleech. Username or E-mail. Tras pasar de HDcity. 转发可对外公布的公告(去除其中链接)2017-01-05 10:00:13---关于http访问异常通知 我们已经收到多起访问异常反馈,访问时提示“连接被重置”,已知影响网站访问以及bt客户端。. - Sunday 11:59 p. Pastebin is a website where you can store text online for a set period of time. Elite-Tracker News - Sitewide Freeleech Google Translation: FREELEECH All torrents are in FREELEECH from 17. Further, any given album could be available for downloading in different file formats, each of which could differ in their freeleech status. Elite-Tracker News - Sitewide Freeleech Google Translation: FREELEECH All torrents are in FREELEECH from 17. You have to be user class "Member" Member Requirements: Must have been a member for at least a week, have at least 40 GiB of upload, and a ratio of at least. En plus des publics. Further, any given album could be available for downloading in different file formats, each of which could differ in their freeleech status. Beathaus5 is very new electronic music tracker. Updated With private trackers trying to crack down on cheaters more than ever, Ratio Ghost is still actively updated with new features and detection avoidance schemes. 0MB 06 Body to Body. Get on popular torrents as soon as they are uploaded, automation like irssi wins here but even rss of freeleech torrents will do the job, and keep seeding. Can the devs look into this ? Same. También han decidido poner todas las nuevas subidas GOLD, es decir, que no te cuenta la bajada pero sí la subida, perfecto para aumentar nuestro ratio si andamos escasos, o si somos nuevos dentro del tracker poder tener un buen colchón. BHD: A different tracker than previously listed, BHD is for both TV and movies. No Yes - Freeleech This counts only Upload data (free. 26,500 + active torrents. Tracker deny my torrent request on freeleech. Pentru cei care folosesc domeniul myxz. • Freeleech ativo até o terça-feira. org Forum Index. Add The Dark Syndicate tracker. Make sure you're using v4. co/DKtxqiBKd7”. Aayush Agrawal submitted a new resource: XenTorrent Tracker - This addon provides an integration between XenForo and the XBT Tracker by Olaf van der Spek. XenTT provides an integration between XenForo and the XBT Tracker by Olaf van der Spek. cc/register PROIBIDO CADASTRO COM GMAIL #Tracker #Privado #Aberto. Don' t worry Just go to setting and then select "Advanced" panel. Since recent global income is 0, invite price was lowered to lowest possible value. com/q6qXKV- Ratio Master : http://clkmein. Le 23 mars 2017 , t411 annonce un changement de nom de domaine, et choisit de le transférer sur l'île d' Anguilla , ce qui donnera t411. bazı userlara bakıyorum adam birkaç tb arşiv seed ediyor. As of today, there are over 43000 active torrents on this tracker – roughly 150-200 new torrents get uploaded every day. After that uncheck "Resolve peer countries (GeoIP)" Hope it helps. Freeleech Don't Look Her In the Eye, released 18 July 2013 1. 2018 16:00:00 to 10. Дисклеймер: Главное и, по сути, единственное, что нам бы хотелось отметить в отношениях с. <1GB+ Freeleech!> The title says it all! All torrents that are 1GB or bigger are now freeleech. 1MB DJ Technorch - Track 2. really bad tracker seems just a honeypot for admin asking donation, I think the only thing you can do to increase ratio is doing research for request upload seriously this tracker is a [email protected] in the @ss, no only low chance to increase ratio but even a bad hit and run system… max 3 torrent for user H&R…. 5:1 ratio, the big file can help especially in your early quest of obtaining the initial sharing files. The site will be open from 31st of December 2008 till the 1st of January 2009. * bonus sistemi olsa da torrentday kadar cömert değil. PWNNetwork Open Signups And Freeleech - Games Torrent Tracker Earlier this month we featured a new Gazelle based PC and Games torrent tracker called PwnNetwork (aka The Network). 2009 11am GMT (12am CET/ 2pm MSK). Elite-Tracker News - All torrents are Silver. Tracker Privado SEMEANDO Aberto para registro Categoria: Educacional • Registro Aberto. TVV: This is an excellent tracker, among one of the best for TV enthusiasts by far. Tracker got around 175K registered members which is really great number indeed , but un-fortunately uploaded torrents don't have so many seeders/leechers ! Maintain good ratio is easy as : - Bonus point system is implemented where you can buy extra GBs upload credit. YGG Torrent est né des cendres de T411. En plus des publics. Learn more. No Yes - Freeleech This counts only Upload data (free-leech) No Yes - Upload Boost This gives peers 5X data upload credit toward seedbonus! No Yes - Download Boost This gives peers 5X data download credit (ratio-building) No Yes - Silver This splits peers download data in half (light-boost). Several years on I have become much lazier and have decided on some torrents to set as freeleech by usage of the "Random" button. [Which was an AMAZING idea and props to. 26,500 + active torrents. Signing up for an account is. There will most likely be no more open registrations so follow us on Twitter if you want news about a possible opening. wav" WAVE INDEX 01 00:00:00 TRACK 03 AUDIO TITLE "She Belongs To Me" INDEX 00 02:49:04 FILE "03 - She Belongs To Me. Add ignore to Empornium. 2020 00:00:00 to 18. 转发可对外公布的公告(去除其中链接)2017-01-05 10:00:13---关于http访问异常通知 我们已经收到多起访问异常反馈,访问时提示“连接被重置”,已知影响网站访问以及bt客户端。. Donate €10 and get a VIP account + 25GB Upload Credit + 1 week freeleech. Grab A torrent is grabbed when its metadata files have been downloaded. Once registered and logged in, you will be able to create topics, post replies to existing threads, give reputation to your fellow members, get your own private messenger, post status updates, manage your profile and so much more. Changed¶ Change Blackcats to use passkey. 2018 16:00:00 to 10. Freeleech What is Freeleech? [F] symbol is used to indicate that a torrent is subject to Freeleech. Bangladesh's Premier forum & online community. It is a family tracker No Porn is allow. Oh I forgot to mention, the tracker is on global freeleech at the moment, but the freeleech flag does is not set to 1 in the API results when it happens. Global Freeleech Mode Activated! 3 days, 16 hours, 56. 4MB 05 COY Girl. 0 is invite only. Even after doing so , CrazyHD will still not count hashfails because that is wasted data. Also, freeleech is very rarely present, the split archives forbiden, but a separate video files still allowed, so the beginning on the Karagargia is additional more difficult. 01 PHOENIX (Japanese ver. Sorry, the site is currently invite only. Одной из основных задач Клуба является популяризация аудиокниг. It’s been over four months since the site’s launch and in the meantime lots of things have changed– it’s time for an updated article. but has and many torrents from all other general categories like music, tv episodes, games etc movies. 9MB 09 Dirty Cat. When you download a file, you are leeching from other peers who already have the data. adampetrovic Add freeleech filter option to TorrentLeech ( #267) Latest commit 2881462 on May 1, 2020 History. Listen to Freeleech på Pirategay on Spotify. Groups torrents. In simple words, seeding allows a torrent to stay alive. Get on popular torrents as soon as they are uploaded, automation like irssi wins here but even rss of freeleech torrents will do the job, and keep seeding. Information about the data you want to download is held in a. 2017-01-05 10:00:13---关于HTTP访问异常通知. ]tv Durée du freeleech : jusqu'au dimanche 14 Juillet à 23h59 UTC+2. Also known as the "Garden" around dedicated community. Table 13 reports estimates of the elasticity of sales with respect to private-network piracy, with a median estimate. - Sunday 11:59 p. Torrentday seem to be having a bit of a freeleech extravaganza. Current time is: 13-Jun 22:44. The site has very good content, speeds, pre time with a friendly community. Big Quality and Big Quantity. their UI is as smooth as butter. Liens :- Le VPN Hotspot Shield (gratuit) : http://clkmein. Invite only - Signups are closed presently, if you have an invite code click Here. 🎅🎄 Signup today to get free TorrentLeech or ProAudioTorrents Invite! Get access to premium trackers, free seedboxes by signing up. TVV: This is an excellent tracker, among one of the best for TV enthusiasts by far. Make sure you're using v4. Re : [XXX] DEVILOID devient un tracker FREELEECH permanent. Change authkey to passkey in FunFile. when retards tried to find a new shitty tracker to troll with. Add log-scores filter option to What. Add freeleech filter option to IPTorrents. HDCity : Freeleech en este tracker privado Bittorrent hasta el domingo a las 23. This tracker dont have a large members base, but has very friendly and active comunity and many quality torrents. 4MB 05 COY Girl. " Do I need to do this and if so, how? I restarted my client (ktorrent), but all of my torrents are still saying that there is a problem with the tracker. Once configured properly, IRC channel is being monitored for new torrents being uploaded on my tracker, continuously. RapidSeedbox gives you an optimized, fast, and totally customizable Seedbox that fits your every need. Thanks for that info. 755 GB Downloaded: 110. this is one of shittiest tracker i have ever seen, no freeleech,nothing special on this tracker, i have an id from 2014, still active but i dont leech anything. - Ourbits is a fantastic Chinese HD tracker with 37,500 torrents. Also known as the "Garden" around dedicated community. The releases are English, Danish and sometimes Scandinavian. They have porn in all kind of formats from dvdrips to web-dl 720p&1080p […]. 01 PHOENIX (Japanese ver. Every weekend, Friday 6 p. This board has no forums. Get on popular torrents as soon as they are uploaded, automation like irssi wins here but even rss of freeleech torrents will do the job, and keep seeding. 24] 2012-09-10 16:18. 2020 18:00:00. gerçi sonra aynı isim ve e-posta adresiyle. However, if your BT tracker requires a 0. In the past week, there’s already 375 torrents, and everything is freeleech. edit 3: buraya üye olalı bir ay'ı birkaç gün geçti ve. Add log-scores filter option to BaconBits. Re : [XXX] DEVILOID devient un tracker FREELEECH permanent. 2 contributors. Re-add PreToMe with updated info. I didn't realize my share ratio was so low till now. BHD: A different tracker than previously listed, BHD is for both TV and movies. Don't be afraid if you don't know bulgarian - the site has English translation and also a small part of the forum is dedicated to foreign users. TotheGlory近期消息. Changed¶ Change Blackcats to use passkey. HDCity : Freeleech en este tracker privado Bittorrent hasta el domingo a las 23. Global Freeleech Mode Activated! 3 days, 16 hours, 56 minutes, 57 seconds. Invite only - Signups are closed presently, if you have an invite code click Here. Freeleech Torrent. Table 13 reports estimates of the elasticity of sales with respect to private-network piracy, with a median estimate. Is that in database ? Do there is another way to activate freeleech for everyone for few days in a private tracker ? 该提问来源于开源项目:OlafvdSpek/xbt. Global Freeleech Mode Activated! 3 days, 16 hours, 56 minutes, 57 seconds. In the worst case, you may be auto-banned by the tracker. JPopsuki 2. Utilizador. Don't set if you don't care. - Sunday 11:59 p. No Yes - Freeleech This counts only Upload data (free-leech) No Yes - Upload Boost This gives peers 5X data upload credit toward seedbonus! No Yes - Download Boost This gives peers 5X data download credit (ratio-building) No Yes - Silver This splits peers download data in half (light-boost). Next, click on Preferences. The first of our plans involves a very cool freeleech plan, but we're going to wait until we're sure the tracker's relatively stable for that. Tracker Name: 29m-team. Actions - Torrent action settings. 0day 广义上的0day包含两种概念: 0day攻击,一种对计算机软件的攻击方式 0day资源,一种Warez 在本站的语境下,0day多指后者,0day中的0表示zero,其更准确的称呼是Zero-day warez(copyrighted sof. Accounts inactive for more than 90 days are automatically deleted, so keep trying. Usenet - (USEr NETwork) A public access network on the Internet that provides group discussions and group email. GPS Phone Tracker Pro is an easy to use app leverages the latest technology to help your stay connected on real time to the people. Every torrent announce is going through my filters, checking for a match. AlphaRatio. Vuforia Live is a half-day virtual event devoted to all things augmented reality, featuring sessions on the business value of AR, spotlights on real-world AR case studies, updates on PTC AR products, and a sneak peek into what the Vuforia team is working on next. 755 GB Downloaded: 110. February, 2013. li, hoy, por motivo del cumpleaños de su administrador Nikro, habrá Freeleech general desde hoy hasta el domingo a las 23. XenTT provides an integration between XenForo and the XBT Tracker by Olaf van der Spek. GPS Phone Tracker uses GPS coordinates and state of the art GPS location data to report the real time friends. The content is good so is the speed. animersion2. Install this script? Ask a question, post a review, or report the script. Add freeleech filter option to What. IRC - General IRC configuration for autodl-irssi. also they celebrating the moving to the new servers! from 03. Freeleech active until the 20th! Posted by opentrackerz at 8:22 PM. Freeleech Torrent Gps Phone Tracker Pro V10. 10$ 15$ &In some cases negotiable. com - торрент трекер c лучшей музыкой в lossless качестве. User Login. Inserts a freeleech link in main menu. TRACK 02 AUDIO TITLE "Did You Know" INDEX 00 02:35:35 FILE "02 - Did You Know. Thanks for that info. TotheGlory近期消息. 9MB DJ Technorch - Track 4. Download amount increasing without you downloading. Users who have contributed to this file. Channel - Settings for tracker announce channels. Popular trance music tracker TranceRoute will be opening signups on new year’s eve. In general, if your tracker requires a 1:1 ratio, smaller files is better. Hors ligne #7 25/12/2015 01:10:07. cd is a tracker that permits users to legally share music. 本文整理汇总了PHP中htmlsafechars函数的典型用法代码示例。如果您正苦于以下问题:PHP htmlsafechars函数的具体用法?PHP htmlsafechars怎么用?PHP htmlsafechars使用的例子?那么恭喜您, 这里精选的函数代码示例或许可以为您提供帮助。. Learn more. 2020 18:00:00 to 30. Register New Account | Recover Account | Recover Account. Страницы (8. Is that in database ? Do there is another way to activate freeleech for everyone for few days in a private tracker ? 该提问来源于开源项目:OlafvdSpek/xbt. 🔗 Cadastre-se: https://semeando. torrentleech: add freeleech only option Jackett#9456 Jackett#10280. cd Features: Freeleech Tokens. com DA: 26 PA: 15 MOZ Rank: 41. Buy, Trade, Sell Or Find Free Invites for HDBits, PTP, Empornium, PrivateHD, Sinderella, etc 🎅🎄 ×. Some trorrents are cross seeded in those three trackers. but has and many torrents from all other general categories like music, tv episodes, games etc movies. Changed¶ Change Blackcats to use passkey. 2018 16:00:00 to 10. 24] 2012-09-10 16:18. Zero kara Hajimeru Mahou no Sho Opening - Hakkensha wa Watashi (Tapimi. También han decidido poner todas las nuevas subidas GOLD, es decir, que no te cuenta la bajada pero sí la subida, perfecto para aumentar nuestro ratio si andamos escasos, o si somos nuevos dentro del tracker poder tener un buen colchón. Change authkey to passkey in FunFile. PWNNetwork Open Signups And Freeleech - Games Torrent Tracker. cd come to freeleech post on this page to tell it to most of people as possible. You can find Bitcoin Marketplace and Auction Site. The file is made up of headers in the form of [headername] with the options for that header immediately below. freeleech leri indirerek ratioyu uçurabilirsiniz ayrıca. This online mobile tracker comes with an inbuilt feature of GPS which makes it easier for you to locate any phone using number. torrent file in their torrent client are called peers. PWN was not just any games tracker - it was the successor to the much famed nTorrents. Page 1 of 13 - The new idol tracker is going public - posted in Discussion Lounge: Dear friends and idol lovers, as promised a few weeks back we have been working on a new tracker especially dedicated to Japanese idols. Every torrent announce is going through my filters, checking for a match. by Chiyachan. torrent file, and other people who have added the same. 4MB DJ Technorch - Track 5. Not familiar with this tracker, curious of anyone's opinions. The data collected is used for analysis. RapidSeedbox gives you an optimized, fast, and totally customizable Seedbox that fits your every need. Improved Gazelle Tracker Freeleech Browser. You should also try to get an invite from a good friend of yours, other users on asian related forums or similar This is JPopsuki 2. After that uncheck "Resolve peer countries (GeoIP)" Hope it helps. Some trackers offer Freeleech during special events like tracker Birthdays, or during Holidays, or sometimes when a donation goal as met. 只看楼主 收藏 回复. In their glory days they were comfortably #2 and I think they have a chance to regain their position. The cookie is used to calculate visitor, session, campaign data and keep track of site usage for the site's analytics report. It’s hard to maintain a good ratio on SceneAccess due to the lack of a bonus system and freeleech only available for donors. Oh I forgot to mention, the tracker is on global freeleech at the moment, but the freeleech flag does is not set to 1 in the API results when it happens. Cinemageddon is a great tracker if you are looking for rarer/older movies. However, back when the article was posted, this site was closed to the public. Ekkor: 2019. All times are UTC + 3. A lot of tracker admins say that they catch all cheaters, or that they catch some large portion of them - maybe 90%. Tracker Name- Kufirc Status- All support rewards will be credited 2x + a 48 hour individual freeleech will be provided to the sponsor until June 20th. Tunnan & Moroten · Song · 2011. 0 is invite only. Once registered and logged in, you will be able to create topics, post replies to existing threads, give reputation to your fellow members, get your own private messenger, post status updates, manage your profile and so much more. Also, freeleech is very rarely present, the split archives forbiden, but a separate video files still allowed, so the beginning on the Karagargia is additional more difficult. Freeleech Torrent. Thanks for that info. StormEye 584 May. Actually I recently became member of IPT and got a seedbox for a month so after doing that I was made aware of stuff like autodl-irssi as to get a good ratio on IPT, I needed to download torrents (freeleech) as soon as they are posted and for that I setup autodl-irssi but once I have built ratio, I guess I will no longer use seedbox and then keep leeching and zapping and. : Freeleech não é imune de hit and run (Baixou e Correu). cannot get anything to parse at all from their server. A lot of tracker admins say that they catch all cheaters, or that they catch some large portion of them - maybe 90%. TVV: This is an excellent tracker, among one of the best for TV enthusiasts by far. cd is a tracker that permits users to legally share music. Usenet - (USEr NETwork) A public access network on the Internet that provides group discussions and group email. SurfOffline is a fast and convenient website download software. cc/register PROIBIDO CADASTRO COM GMAIL #Tracker #. Perfect Purple is a Deep Purple & other 70s classic rock bootleg trading community where users share their bootlegs via torrent or direct downloads for free. Change authkey to passkey in FunFile. I don't find the gold option for activate freeleech on xbt. Thanks to the combined efforts of your fellow users, sitewide freeleech for everyone has been enacted! Now's the time to take advantage of the 1,000+ new torrents uploaded daily. 🎅🎄 Signup today to get free TorrentLeech or ProAudioTorrents Invite! Get access to premium trackers, free seedboxes by signing up. These all torrents is still famous sites & that was the ERA when these mentioned sites was king of the Internet, But now due to Google & Media policies they shuting down domains & creating new (with Different extension). 3MB 08 Begin with Kiss. Inscrivez-vous et rejoignez gratuitement la plus grande communauté. Одной из основных задач Клуба является популяризация аудиокниг. 3MB DJ Technorch - Track 6. TORRENT SILVER = 50% of your DL will be taken into account!. They currently have ~25000 registered users & almost 42000 torrents. 你对这个回答的评价是?. Popular movie torrent tracker PassThePopcorn (PtP) just went though one such nightmarish database crash which resulted in a massive loss of user accounts, torrents, user stats, forum posts and lots of other data. Grab as much content as possible and make sure to share it with the world! At last check (on 6/1/2010), STR tracked 5000 torrents and had an active user base of 7200+ members. Where you see Maximum upload rate (kB/s): [0: unlimited], type the number 1 in the box to the right. The tracker offers numerous releases, including series, music, applications and movies etc. Beathaus5 is very new electronic music tracker. You should also try to get an invite from a good friend of yours, other users on asian related forums or similar This is JPopsuki 2. Register New Account | Recover Account | Recover Account. PTP is my final goal as a tracker, and I missed it by just a few months when they closed recruitment on RED. Is that in database ? Do there is another way to activate freeleech for everyone for few days in a private tracker ? 该提问来源于开源项目:OlafvdSpek/xbt. The data collected is used for analysis. Listen to Freeleech på Pirategay on Spotify. GCS - is one of the most secret tracker in the internet, which exclusively dedicated to Flac music material of very high quality. ලොකු ගනන් ඕනේ නෑ මට. Tracker got around 175K registered members which is really great number indeed , but un-fortunately uploaded torrents don't have so many seeders/leechers ! Maintain good ratio is easy as : - Bonus point system is implemented where you can buy extra GBs upload credit. Zero kara Hajimeru Mahou no Sho Opening - Hakkensha wa Watashi (Tapimi. Current time is: 30-May 03:41. wav" WAVE INDEX 01 00:00:00 TRACK 03 AUDIO TITLE "She Belongs To Me" INDEX 00 02:49:04 FILE "03 - She Belongs To Me. People are at home bored A freeleech might help. com/q6qCrR- Le site YGGTorrent : http://clkmein. So if you are a fan of asian Movies, Music, TV-Shows then it is the right place for you to find what you have been looking. - Ourbits is a fantastic Chinese HD tracker with 37,500 torrents. This board has no forums. + 5 shrooms for help. Screenshots. their UI is as smooth as butter. TVV: This is an excellent tracker, among one of the best for TV enthusiasts by far. Add to your client. They have almost 150,000+ Registered User with 332,361+ Torrent Files. Oh thank god. However, if your BT tracker requires a 0. Tracker Name : Duration : (If you know for how long the freeleech is going to last) If the post helped you, reward the user by reacting to the post like this -. Install this script? Ask a question, post a review, or report the script. You should also try to get an invite from a good friend of yours, other users on asian related forums or similar This is JPopsuki 2. February, 2013. Grab fresh freeleech torrents because those get lots of seeders , and don't affect your download meter. Nastepnie edytujemy plik. For the time being, we’re keeping freeleech. Add bnc option to server header. PornBits (has freeleech) so 0 download and 1tb upload (after 1 month) The problem is you don't A - seed back B - don't go for fresh content to build your upload aka new series episodes the night they are released in 720 and 1080p as well as movies that come out and released that day. The rest are all Freeleech. 🎅🎄 Signup today to get free TorrentLeech or ProAudioTorrents Invite! Get access to premium trackers, free seedboxes by signing up. LosslessClub. Yu☆Gi☆Oh! VRAINS (OP+ED) [MEGA] Yu☆Gi☆Oh! VRAINS Opening - With The Wind (Hiroaki TOMMY Tominaga) MP3 320 Kbps: MEGA FLAC. TorrentBD (TBD) probably the best general private tracker in Bangladesh with BDIX SPeed that strated in 2010 and still running Smoothly. Most likely you will have to create and share your own torrents. එකක් Rs 450/=ගානේ දෙනවා. GPS Phone Tracker Pro is an easy to use app leverages the latest technology to help your stay connected on real time to the people. 该楼层疑似违规已被系统折叠 隐藏此楼 查看此楼. Re-add filelist. Username: Password: Cookies MUST be enabled for you to login. The torrent tracker is focused on scene releases but also provides P2P movie and TV releases. Author Patchez Daily installs 0 Total installs 15 Ratings 1 0 0 Version 2. Applies to. Yes, but you may not seed the same torrent from two different computers/IPs as the tracker will not understand how you can be in two places at once, and doing so may cause problems. Also, freeleech is very rarely present, the split archives forbiden, but a separate video files still allowed, so the beginning on the Karagargia is additional more difficult. These two attributes are included to allow a torrent tracker to specify the seeding requirements on a per torrent basis. Inscrivez-vous et rejoignez gratuitement la plus grande communauté. The best cinema work that you will find at this opening torrent site is Pirates 2: Stagnetti's Revenge and it is a porn flick. other filter is 4GB-12 GB which doesn't seem to matter. PWN was not just any games tracker - it was the successor to the much famed nTorrents. Oh I forgot to mention, the tracker is on global freeleech at the moment, but the freeleech flag does is not set to 1 in the API results when it happens. Privacy & Cookies: This site uses cookies. On May 15, we will open registrations for 24 hours, up to 5,000 accounts, let your friends know. Soultrane_. In general, if your tracker requires a 1:1 ratio, smaller files is better. wav" WAVE INDEX 01 00:00:00 TRACK 04 AUDIO TITLE "Too Long" INDEX 00 02:10:04 FILE "04 - Too Long. Get on popular torrents as soon as they are uploaded, automation like irssi wins here but even rss of freeleech torrents will do the job, and keep seeding. The correct ip is xxxx. Add AnimeBytes. Reddit OpenSignups Feed. Buy, Trade, Sell Or Find Free Invites for HDBits, PTP, Empornium, PrivateHD, Sinderella, etc 🎅🎄 ×. In your label, highlight a particular torrent and then go into the "Files" tab at the bottom, and. Partial Downloading — Now that you have a group of torrents neatly organized and waiting for your tracker's freeleech, you can control other torrent options, such as setting up "partial seeding" for torrents that haven't been downloaded yet. Thanks for that info. Nu mai am nici un tracker care sa mearga. Tracker Platforms; Hey There! Like what you see? Feel free to contribute HERE! Name Abbr Type Codebase Moz Grade Users Torrents Peers Ratio Ratio Diff Freeleech. In their glory days they were comfortably #2 and I think they have a chance to regain their position. 5MB 03 Love is Gone. Nom du tracker : Sharewood[. 5Gb in size) List below. The downtime will affect 3 out of 4 tracker proxies; please expect some of your requests to randomly fail. Site Categories. They currently have ~25000 registered users & almost 42000 torrents. Removed¶ Remove HDBits tracker; Fixed¶ Force SSL for Awesome-HD. - Ourbits is a fantastic Chinese HD tracker with 37,500 torrents. Freeleech is something applied to a torrent that makes download stats not be recorded (or at least counted on your download amount) at all, so the torrent is free to leech hence the term freeleech. Non-mainstream Music mostly. Oh I forgot to mention, the tracker is on global freeleech at the moment, but the freeleech flag does is not set to 1 in the API results when it happens. 9MB 09 Dirty Cat. However there are two factors I believe holding it back from #2. This is not really a uTorrent issue but an issue with you not understanding private trackers. Among the torrents tracked are English P2P releases as well as Slovenian releases (dubbed, subbed or original content from Slovenia). You will not find any usual review of this site, because "Garden" is the most unavailable private tracker. We apologize for any inconvenience caused when moving servers. Cinemageddon is a great tracker if you are looking for rarer/older movies. PWN was not just any games tracker - it was the successor to the much famed nTorrents. Hi, I just joined GG tracker and it seems to be a very organize tracker. 12 until 12. If there are no seeders, the torrent will certainly die and no more people can download the total amount of parts. tek kötü yanı 3-5 ay girmeyince üyeliğinizi sonlandırmasıdır. Once they reopen I'll probably join if I can. Username: Password: Cookies MUST be enabled for you to login. Oh I forgot to mention, the tracker is on global freeleech at the moment, but the freeleech flag does is not set to 1 in the API results when it happens. It's with closed signups and no invite system. Posted by 5 days ago. Tracker deny my torrent request on freeleech. Cette fermeture est demandée par les autorités françaises qui ont mené une enquête après plaintes de la Société des auteurs, compositeurs et éditeurs de musique (Sacem) et de plusieurs. If there is a match, autodl-irssi will download the. Metal Torrent Tracker Forum › English-speaking forum › Website forums Freeleech, New rating system and profile update. Vuforia Live is a half-day virtual event devoted to all things augmented reality, featuring sessions on the business value of AR, spotlights on real-world AR case studies, updates on PTC AR products, and a sneak peek into what the Vuforia team is working on next. php - clean /g/track stuff (pre-alpha) faq. User class required for purchase/send invites were lowered from Veteran User to Insane User (lowered by 1 level) Tip: the user cap is raised from about 10k to about 23k. Once they reopen I'll probably join if I can. In two words - the tracker is very friendly to all users. Back in August 2012 a member of the BakaBT community called Buchno managed to reach an amazing 10TB uploaded. In simple words, seeding allows a torrent to stay alive. I really identified with some of them age 21-35 (hello Neil, mental illness, etc. The site will be open from 31st of December 2008 till the 1st of January 2009. Aayush Agrawal submitted a new resource: XenTorrent Tracker - This addon provides an integration between XenForo and the XBT Tracker by Olaf van der Spek. Not familiar with this tracker, curious of anyone's opinions. Add ignore to GazelleGames. Some trackers offer Freeleech during special events like tracker Birthdays, or during Holidays, or sometimes when a donation goal as met. All torrents must be seeded to a minimum of 0. Add bnc option to server header. Here you can access the official torrentinvitez. [Album] ZE:A - Phoenix [MP3 / 320 / CD / Japanese Version - 2012 / Freeleech! ] [2012. 411 GB Active Torrents: up 12 down 0 Bonus Points: 416. The content is good so is the speed. Groups torrents. However there are two factors I believe holding it back from #2. 12 set freeleech! so dont worry be happy. com Selling Thread. Feel free to explore and incase you are lost, our nice and helpful staff is right there for you. 90 lines (86 sloc) 2. Sorry, the site is currently invite only. JPopsuki is an Asian music tracker. It supports state, GSM and CDMA mobile service providers. DEVILOID devient un tracker FREELEECH permanent aka No-ratio. Heritance. Same as multi cat and sub-cat. : Freeleech não é imune de hit and run (Baixou e Correu). PornBits (has freeleech) so 0 download and 1tb upload (after 1 month) The problem is you don't A - seed back B - don't go for fresh content to build your upload aka new series episodes the night they are released in 720 and 1080p as well as movies that come out and released that day. Don’ t worry Just go to setting and then select “Advanced” panel. Prefer freeleech to other torrents. Improved Gazelle Tracker Freeleech Browser. 0day 广义上的0day包含两种概念: 0day攻击,一种对计算机软件的攻击方式 0day资源,一种Warez 在本站的语境下,0day多指后者,0day中的0表示zero,其更准确的称呼是Zero-day warez(copyrighted sof. Sometimes they're few and far between, but I've never been a member of a tracker I haven't been able to get and keep my ratio above the 1. If you are the legal owner of any submitted material and do not. However there are two factors I believe holding it back from #2. Bit-HDTV is private tracker for tv shows and movies and new content actively uploaded on regular basis. Good PRE times and good speeds. Of all the trackers I am part of TVV is the one I am most careful of downloading from because my ratio is always ~ 1. Changed¶ Change Blackcats to use passkey. adampetrovic Add freeleech filter option to TorrentLeech ( #267) Latest commit 2881462 on May 1, 2020 History. Current time is: 13-Jun 22:44. torrentleech: add freeleech only option Jackett#9456 Jackett#10280. Staff team casted a 7-day 2xfree sitewide magic. 0MB 06 Body to Body. The cookie is used to calculate visitor, session, campaign data and keep track of site usage for the site's analytics report. Freeleech and Neutral Leech When creating torrents to upload to a private tracker, there is a box to “mark torrent as private”. their UI is as smooth as butter. Add freeleech filter option to TorrentLeech #267 thebigmunch merged 1 commit into autodl-community : master from adampetrovic : master May 1, 2020 Conversation 2 Commits 1 Checks 0 Files changed. Yes, but you may not seed the same torrent from two different computers/IPs as the tracker will not understand how you can be in two places at once, and doing so may cause problems. Search in titles only Search in BitTorrent Discussion only. PWN was not just any games tracker - it was the successor to the much famed nTorrents. It should be noted that almost all torrents are TV releases. A lot of tracker admins say that they catch all cheaters, or that they catch some large portion of them - maybe 90%. [Which was an AMAZING idea and props to. me / LearnBits - is a private torrent tracker for e-learning. Removed¶ Remove HDBits tracker; Fixed¶ Force SSL for Awesome-HD. In their glory days they were comfortably #2 and I think they have a chance to regain their position. 4MB DJ Technorch - Track 5. They currently have ~25000 registered users & almost 42000 torrents. Some trorrents are cross seeded in those three trackers. Freeleech setting for Torrentleech #10280. 12 set freeleech! so dont worry be happy. ### Tracker stats: Registered users : \~280k. Let's look at an example to understand it better: Imagine that a certain torrent file has 5 "peers" and 0. cd Freeleech ( What. 01 PHOENIX (Japanese ver. Sh is a private tracker specializing in all things related to food. High-performance VPS Seedbox that works for you. 7MB DJ Technorch - Track 10. These all torrents is still famous sites & that was the ERA when these mentioned sites was king of the Internet, But now due to Google & Media policies they shuting down domains & creating new (with Different extension). The headers are: Options - Global options for autodl-irssi. Le 16 novembre 2016, le tracker t411 choisit de transférer son nom de domaine de t411. GCS - is one of the most secret tracker in the internet, which exclusively dedicated to Flac music material of very high quality.